Категория - Стрижки и

Завалий евдокия николаевна

В Википедии есть статьи о других людях с фамилией Завалий.Евдокия Николаевна Завалий (укр.Євдокія Миколаївна Завалій; 28 мая1924[1] — 5 мая2010) — единственная женщина — командир взвода морской пехоты в годы Великой Отечественной войны, гвардии полковник. БиографияРанние годыЕвдокия Завалий родилась 28 мая1924 года в городе Новый БугНовобугского районаНиколаевской области, Украина.
Читать дальше

Джиа фильм отзывы

По-большому счету, в фильме задета вечная тема человеческого одиночества, а взлет и падение — контекст. Хотя, право слово, такому погружению на дно позавидует даже Микки Рурк, он-то жив.Картина основывается на данных из биографии американской модели Джии Мари Каранджи. Вроде как обычная золушка из теплой Филадельфии, получавшая по 10000 долларов в день.
Читать дальше

Дерево растет в бруклине книга

MI General Complete name : A.Tree.Grows.in.Brooklyn.1945.BDRip\A.Tree.Grows.in.Brooklyn.1945.BDRip.avi Format : AVI Format/Info : Audio Video Interleave File size : 1.46 GiB Duration : 2 h 8 min Overall bit rate : 1 621 kb/s Writing application : VirtualDubMod 1.5.10.3 | www.virtualdub-fr.org || (build 2550/release) Writing library : VirtualDubMod build 2550/release Copyright : RuTrackerVideo ID : 0 Format : MPEG-4 Visual Format profile : Advanced Simple@L5 Format settings, BVOP : 1 Format settings, QPel : No Format settings, GMC : No warppoints Format settings, Matrix : Custom Codec ID : XVID Codec ID/Hint : XviD Duration : 2 h 8 min Bit rate : 1 419 kb/s Width : 640 pixels Height : 480 pixels Display aspect ratio : 4:3 Frame rate : 23.976 (24000/1001) FPS Color space : YUV Chroma subsampling : 4:2:0 Bit depth : 8 bits Scan type : Progressive Compression mode : Lossy Bits/(Pixel*Frame) : 0.193 Stream size : 1.28 GiB (88%) Writing library : XviD 67Audio ID : 1 Format : AC-3 Format/Info : Audio Coding 3 Format settings, Endianness : Big Codec ID : 2000 Duration : 2 h 8 min Bit rate mode : Constant Bit rate : 192 kb/s Channel(s) : 2 channels Channel positions : Front: L R Sampling rate : 48.0 kHz Frame rate : 31.250 FPS (1536 spf) Bit depth : 16 bits Compression mode : Lossy Stream size : 177 MiB (12%) Alignment : Split accross interleaves Interleave, duration : 42 ms (1.00 video frame) Interleave, preload duration : 500 ms Service kind : Complete Main-General Complete name : A.Tree.Grows.in.Brooklyn.1945.BDRip\A.Tree.Grows.in.Brooklyn.1945.BDRip.ENG.ac3 Format : AC-3 Format/Info : Audio Coding 3 File size : 177 MiB Duration : 2 h 8 min Overall bit rate mode : Constant Overall bit rate : 192 kb/sAudio Format : AC-3 Format/Info : Audio Coding 3 Format settings, Endianness : Big Duration : 2 h 8 min Bit rate mode : Constant Bit rate : 192 kb/s Channel(s) : 2 channels Channel positions : Front: L R Sampling rate : 48.0 kHz Frame rate : 31.250 FPS (1536 spf) Bit depth : 16 bits Compression mode : Lossy Stream size : 177 MiB (100%) Service kind : Complete MainИсточник: http://rutracker.in.ua/viewtopic.php?t=43590.
Читать дальше

Запрещенные русские фильмы

Далеко не все фильмы — как иностранные, так и отечественные — добираются до экранов российских кинотеатров. Некоторые выходят только ограниченным «тиражом».
Читать дальше

Киану ривз родители

ПОЛНОЕ ИМЯ: Киану Чарльз Ривз (Keanu Charles Reeves)ДАТА РОЖДЕНИЯ: 02.09.1964 (Дева)МЕСТО РОЖДЕНИЯ: Бейрут, ЛиванЦВЕТ ГЛАЗ: Киану Чарльз Ривз (Keanu Charles Reeves)ЦВЕТ ВОЛОС: БрюнетСЕМЕЙНОЕ ПОЛОЖЕНИЕ: Не женатСЕМЬЯ: Родители: Сэмюил Ноулин Ривз-младший, Патрисия Тейлор. Дети: Ава Арчер Сайм-РивзРОСТ: 186 смВЕС: 84 кгСОЦИАЛЬНЫЕ СЕТИ:РОД ЗАНЯТИЙ: АктерБиография:Канадо-американский актёр, кинопродюсер, кинорежиссёр и музыкант. Родители Киану развелись, когда он был совсем маленьким.
Читать дальше

Инкогнито стас шклярский

Друзья! Настал тот торжественный момент, когда мы открываем голосование за участников НОВОГОДНЕГО ХИТ-ПАРАДА второй половины 2017-го года! Напомним, что набранные голоса сохраняются у участников. НО всё может измениться, благодаря вам! И расстановка мест в Новогоднем хит-параде РАДИО 40 зависит только от вас!!!Голосование до 27 декабря!!!Expand text…Итак,представляем список Новогодней 20-ки лучших из лучших песен по мнению слушателей Радио 40 ( сентября-декабрь 2017!):1.
Читать дальше

Вицин джентльмены удачи

Классикой советского кино является комедия «Джентльмены удачи». Актеры были тщательно подобраны создателями фильма. Как главные, так и второстепенные роли исполнили талантливейшие артисты СССР.
Читать дальше

Петербургские тайны сюжет

1-я серияМолодой князь Николай Чечевинский приезжает в загородное имение навестить своего отца и сестру Анну. Анна встречается с соседом по имению князем Шадурским.
Читать дальше

Самый смешная комедия

Иногда так хочется провести приятный вечер за просмотром хорошего фильма, с достойными актерами, от души посмеяться, создать хорошее настроение. Специально для этого, я публикую сегодня список самых смешных комедий с нашими самыми любимыми актерами. В списке нет российских и советских кинолент, которые сегодня уже стали классикой комедийного жанра — они достойны отдельного обзора.
Читать дальше

София эдельштейн астролог

Главнаявоскресенье, 7 января 2018 г.Дневники астролога Итоги принято подводить в конце года, но у меня получилось засесть за статью только сегодня. Хочу отписаться о своих дирекциях, о том, как прошел сатурнианский возврат, что дал Уран, и вообще, чем мне запомнился уже ушедший 2017 год. вторник, 2 января 2018 г."Нить Ариадны".
Читать дальше

1 2 3 4 5 6